<?xml version="1.0" standalone="no"?>
<!DOCTYPE svg PUBLIC "-//W3C//DTD SVG 1.1//EN" "http://www.w3.org/Graphics/SVG/1.1/DTD/svg11.dtd">
<svg xmlns="http://www.w3.org/2000/svg">
<metadata>Copyright (C) 2019 by original authors @ fontello.com</metadata>
<defs>
<font id="thcv-animals" horiz-adv-x="1000" >
<font-face font-family="thcv-animals" font-weight="400" font-stretch="normal" units-per-em="1000" ascent="850" descent="-150" />
<missing-glyph horiz-adv-x="1000" />
<glyph glyph-name="instagram-3" unicode="&#xe800;" d="M0-50l0 800q0 41 30 71t70 29l800 0q41 0 71-29t29-71l0-800q0-41-29-71t-71-29l-800 0q-41 0-70 29t-30 71z m200 400q0-124 88-212t212-88 212 88 88 212-88 212-212 88-212-88-88-212z m100 0q0 82 59 141t141 59 141-59 59-141-59-141-141-59-141 59-59 141z" horiz-adv-x="1000" />

<glyph glyph-name="instagram-5" unicode="&#xe801;" d="M0-150l0 674 270 0q-26-51-26-109 0-104 73-176t176-73 176 73 73 176q0 58-25 109l283 0 0-674-1000 0z m0 715l0 285 1000 0 0-285-311 0q-74 96-196 96t-196-96l-297 0z m49 45l35 0 0 191q-16-6-25-20t-10-33l0-138z m60 0l36 0 0 197-36 0 0-197z m59 0l35 0 0 197-35 0 0-197z m61 0l33 0 0 197-33 0 0-197z m44-196q0 90 65 155t155 64 155-64 65-155-65-155-155-63-155 63-65 155z m45 1q0-73 51-124t123-50 124 50 52 124-52 123-124 50-123-50-51-123z m422 253q0-23 18-41t43-17l94 0q23 0 41 17t17 41l0 80q0 24-17 42t-41 17l-94 0q-26 0-43-17t-18-42l0-80z" horiz-adv-x="1000" />

<glyph glyph-name="feeding-the-dog" unicode="&#xe802;" d="M383 279l-47 0 41 106 166-65c5-2 10-2 15-2 0 0 0 0 0 0 19 0 36 11 43 29 8 23-4 49-27 58 0 0-330 128-333 128-5 2-9 3-14 3-13 0-24-6-32-15l-166-150c-3-2-4-5-4-8 0 0 0 0 0 0l-24-177c-2-11 1-23 8-32 7-9 17-15 28-17 2 0 5-1 7-1 0 0 0 0 0 0 21 0 40 16 43 38l3 24c3-5 6-10 11-15 0-1 0-1 1-1l50-46-104 0c-25 0-45-21-45-46 0-24 20-45 45-45h223c0 0 0 0 0 0 1 0-1 0 0 0 12 1 24 7 33 16 8 10 13 22 12 34 0 13-6 25-15 34l-66 60 103 0 0-99c0-12 4-23 13-31 8-9 20-14 32-14h0c24 0 45 21 45 45 0 0 0 143 0 144 0 24-20 45-45 45z m-275 47l9 8-13-35 4 27z m554-269c0 0 0 0 0 0 0 0-14 61-14 61-9 26-84 27-93 27-9 0-83-1-92-27 0 0-14-61-14-61 0 0 0 0 0 0 0 0 0 0 0 0 0-1 0-1 0-2 0-12 12-22 36-28 19-5 44-8 70-8 27 0 52 3 71 8 24 6 36 16 36 28 0 1 0 1 0 2 0 0 0 0 0 0z m-37 56c-8-4-32-11-70-11-37 0-61 7-70 11 9 5 33 12 70 12 38 0 62-7 70-12z m351 104c-24 40-63 69-108 81-5 16-23 50-80 77l-135 61c-5 2-11 1-14-3-4-4-5-9-2-14l15-27-20 1c-5 0-10-3-12-7-2-5-1-10 2-14l22-25c-9-16-9-35 2-50l-23-53c-1-4-1-7 0-10 2-3 5-6 8-7 10-3 21-5 32-5 29 0 56 13 74 34l7-7 1-105c-21-35-59-95-59-95-3-4-3-9-1-13 3-4 7-6 11-6h37c4 0 8 2 11 5l59 92c0-10 1-24 8-39-19-5-40-18-40-46 0-7 5-12 12-12h136c0 0 0 0 0 0 21 1 63 16 77 69 10 40 3 82-20 118z m-568 279c51 0 92 42 92 93s-41 92-92 92c-51 0-93-42-93-92s42-93 93-93z" horiz-adv-x="1000" />

<glyph glyph-name="man-and-dog" unicode="&#xe803;" d="M862 423l-117 160c-9 16-27 27-47 27h-109c-21 0-39-12-48-30l-110-168-90-40c-4-2-8-5-12-8l-15 42c-2 6-8 10-14 10-6 0-12-5-13-11l-9-29-13 14c-4 4-10 6-15 4-6-2-10-7-10-12l-3-35c-18-5-32-20-36-38l-56-23c-4-1-7-4-8-8-2-4-2-8 0-12 19-37 54-59 93-59 4 0 7 0 10 0l1-215c-26-43-75-119-75-120-3-4-3-10-1-15 3-4 8-7 13-7h47c5 0 9 2 12 6l77 118 1 0c-1-13 0-31 10-52-24-7-51-23-51-58 0-8 6-14 14-14h172c0 0 0 0 0 0 19 1 52 11 75 42 2-23 22-42 46-42 25 0 46 20 46 46v303h34v-303c0-26 21-46 46-46 25 0 46 20 46 46v535l26-36-10-134c-1-24 17-44 40-45 1 0 1 0 2 0 23 0 41 17 42 39l11 158c0 0 0 0 0 0 1 4 0 7-2 10z m-469-235l-37 103c1 0 1 0 2 0 6 0 12 1 17 4l108 47c0 1 0 1 0 1 3 1 5 3 7 5l45 70v-339c-1 2-2 5-4 7-30 50-80 86-138 102z m256 446c60 0 109 48 109 108s-49 108-109 108c-59 0-108-48-108-108s49-108 108-108z" horiz-adv-x="1000" />

<glyph glyph-name="phone-call" unicode="&#xe804;" d="M464 843l-435-355c-6-6-10-14-10-23v-550c0-17 13-30 29-30h869c16 0 29 13 29 30v550c0 9-4 17-11 23l-434 355c-11 9-26 9-37 0z m-120-182c76 77 200 77 276 0 12-11 12-30 0-41-11-11-30-11-41 0-53 53-140 53-193 0-12-11-30-11-42 0-11 11-11 30 0 41z m88-123c-11-12-30-12-41 0-12 11-12 30 0 41 50 51 132 51 183 0 11-11 11-30 0-41-12-12-30-12-41 0-28 27-73 27-101 0z m454-531c0-32-26-58-58-58h-154c-31 0-57 26-57 58v141h-269v-141c0-32-26-58-58-58h-154c-32 0-58 26-58 58v107c0 52 12 98 36 136 71 115 233 138 368 138 135 0 297-23 369-138 23-38 35-84 35-136v-107z m-404 323c-177 0-345-40-345-218h152v51c0 24 20 44 44 44h299c24 0 43-20 43-44v-51h153c0 177-168 218-346 218z m193-322h153c0 26 0 19 0 45h-153c0-26 0-19 0-45z m-538 0h152c0 26 0 19 0 45h-152c0-26 0-19 0-45z" horiz-adv-x="1000" />

<glyph glyph-name="medical-assistance" unicode="&#xe805;" d="M124-51l236 41 18-101-236-41z m0 0m-117 525c-5-8-7-17-5-26l64-364 78-69c3-2 4-6 5-10l3-17 168 30-19 113-149 177c-8 9-20 14-32 12-2-1-3-1-5-2 0 0-1 0-1 0-4-1-7-3-10-6-15-12-17-34-5-48l126-150-26-22-126 150c-13 15-18 35-15 55s15 36 31 47l-20 116c-2 14-13 24-26 27-14 3-28-2-36-13z m0 0m581-585l18 101 236-41-18-101z m0 0m371 585c-8 11-22 16-35 13-14-3-24-13-27-27l-20-116c2-2 5-4 7-5 29-25 33-68 9-97l-126-150-26 22 126 150c12 15 10 36-4 48-3 3-7 5-11 6 0 0-1 0-1 1-2 0-3 0-4 1-13 2-25-3-33-12l-148-177-20-113 168-29 3 16c1 4 3 8 6 10l77 69 65 364c1 9-1 18-6 26z m0 0m-493 376h34v-34h-34z m0 0m-83-15l33 8 8-33-33-8z m0 0m-77-37l30 17 17-30-30-17z m0 0m-65-55l25 24 24-24-24-24z m0 0m-48-70l17 29 30-17-17-29z m0 0m-28-80l9 33 33-9-9-33z m0 0m-7-51h35v-34h-35z m0 0m7-84l33 9 9-33-33-9z m0 0m28-80l30 17 17-30-30-17z m0 0m48-70l25 24 24-24-24-24z m0 0m65-55l17 29 30-17-17-30z m0 0m77-37l8 33 33-9-8-33z m0 0m83 19h34v-35h-34z m0 0m76 5l33 9 9-33-33-9z m0 0m72 25l29 17 17-29-29-18z m0 0m63 43l24 24 24-24-24-24z m0 0m49 57l17 30 30-17-17-30z m0 0m33 69l9 33 33-9-9-33z m0 0m15 108h34v-34h-34z m0 0m-15 75l33 9 9-33-33-9z m0 0m-33 68l30 17 17-29-30-17z m0 0m-49 58l24 24 24-24-24-24z m0 0m-63 42l17 30 29-17-17-30z m0 0m-72 25l9 33 33-8-9-33z m0 0m77-205c-5 29-27 51-56 56-17 3-36-1-51-12-17-12-41-12-58 0-15 11-33 15-51 12-22-4-40-18-50-37-9-20-9-43 1-62 20-36 32-74 36-115l4-41c2-10 10-17 20-17 10 1 17 9 18 18v50c0 28 23 51 51 51 28 0 51-23 51-51v-50c1-9 9-17 18-18 10 0 18 7 20 17l4 41c4 41 17 79 36 115 7 13 9 28 7 43z m-136-11c-20-1-40 3-58 11l14 32c28-12 60-12 88 0l14-32c-18-8-38-12-58-11z m0 0" horiz-adv-x="1000" />

<glyph glyph-name="elizabethan-collar" unicode="&#xe806;" d="M500-29c-82 0-177 22-264 71v-104c0-11 6-21 15-26 5-2 114-62 249-62s244 60 249 62c9 5 15 15 15 26v104c-87-48-181-71-264-71z m145 760c-37 38-89 60-145 60-113 0-205-92-205-205v-175c0-54 21-104 56-140 38-4 78-6 120-6v75l-50 50c-9 8-11 21-7 32 5 11 16 18 27 18h118c11 0 22-7 27-18 4-11 2-24-7-32l-50-50v-75c42 0 83 2 120 6 35 36 56 86 56 140v175c0 57-23 108-60 145z m-262-233c-16 0-29 14-29 30s13 29 29 29 29-13 29-29-13-30-29-30z m234 0c-16 0-29 14-29 30s13 29 29 29 30-13 30-29-14-30-30-30z m-250-287c-138 11-254 40-316 77l105-134c116-65 151-90 239-111l-28 168z m133-5c-25 0-49 0-73 1l29-175c14-1 29-2 44-2 143 0 234 62 344 124l105 134c-80-49-252-82-449-82z m-264 205v123c-140-25-236-71-236-123 0-57 112-106 272-131-23 40-36 84-36 131z m528 123v-123c0-47-13-91-36-131 160 25 272 74 272 131 0 52-96 98-236 123z m56 300c-27 10-54 16-80 16-31 0-70-8-97-43 15-10 30-21 44-35 25-25 44-55 58-87 10-10 22-20 33-33 25-25 56-42 91-35 29 5 53 27 65 57 26 67-40 129-114 160z m-560 16c-25 0-53-6-79-16-75-31-141-93-115-160 12-30 36-52 65-57 35-7 66 10 91 35 12 13 23 24 34 33 20 50 56 93 101 122-27 35-66 43-97 43z" horiz-adv-x="1000" />

<glyph glyph-name="pill" unicode="&#xe807;" d="M879 170c0 0 0 0 0 0-14 15-34 23-55 23h-120c-20 0-40-8-54-22l-1 0c-31-31-31-80-1-111 15-14 35-23 56-23h120c21 0 40 9 55 23 30 30 31 79 0 110z m-130-102h-45c-26 0-48 21-48 47 0 13 5 25 14 34l1 1c9 9 21 14 33 14h45v-96z m49-85c0 0 0 0 0 0-15 15-34 23-55 23h-120c-20 0-39-8-54-22l-1-1c-30-31-30-80 0-110 15-15 35-23 55-23h120c21 0 40 8 55 23 30 30 31 79 0 110z m-130-103h-45c-26 0-48 21-48 48 0 13 5 25 14 34v0l1 0c9 9 21 14 33 14h45v-96z m-297 582v51c32 6 56 33 56 66 0 36-30 66-67 66h-133c-37 0-66-30-66-66 0-33 23-60 55-66v-51c-32 0-62-13-84-35h0c-21-22-34-51-34-82v-378c0-65 53-117 117-117h156c65 0 117 52 117 117v378c0 64-52 116-117 117z m87-429h-329v246h329v-246z m391 703c-1 0-2 0-3 0h-65l76 89c6 5 6 15 0 21-3 2-7 4-11 4h-92c-8-1-15-8-14-16 1-7 7-13 14-14h60l-77-90c-5-6-4-15 2-21 0 0 0 0 0 0 3-2 6-3 10-3h97c8-1 16 5 16 14 1 8-5 15-13 16z m-201-128h-65l76 88c6 6 6 16 0 22-3 2-7 4-11 4h-92c-8 1-16-6-16-14s5-15 13-16c1 0 2 0 3 0h60l-77-90c-5-6-4-15 2-21 3-2 6-3 10-3h97c9 0 15 8 14 16-1 7-6 13-14 14z" horiz-adv-x="1000" />

<glyph glyph-name="study" unicode="&#xe808;" d="M500 850c-97 0-176-81-176-178 0-97 79-175 176-175 97 0 176 78 176 175 0 97-79 178-176 178z m59-353h-59-59c-41 0-81-11-117-29 62-17 120-41 176-73 56 32 115 56 176 73-36 18-76 29-117 29z m382-176c-32 0-58-26-58-59v-117c0-32 26-59 58-59 33 0 59 27 59 59v117c0 33-26 59-59 59z m-882 0c-33 0-59-26-59-59v-117c0-32 26-59 59-59 32 0 58 27 58 59v117c0 33-26 59-58 59z m29 117c-16 0-29-13-29-29v-30c64 0 117-52 117-117v-117c0-65-53-117-117-117v-30c0-16 13-29 29-29 150 0 270-47 383-119v493c-113 65-235 95-383 95z m853-59v30c0 16-13 29-29 29-148 0-270-30-383-95v-493c113 72 233 119 383 119 16 0 29 13 29 29v30c-64 0-117 52-117 117v117c0 65 53 117 117 117z" horiz-adv-x="1000" />

<glyph glyph-name="vaccine" unicode="&#xe809;" d="M815 92c-89 0-161-73-161-162 0-15 4-30 13-44 15-22 40-36 67-36 20 0 35 4 49 8 11 4 21 7 32 7 11 0 21-3 32-7 13-4 29-8 48-8 28 0 53 14 68 36 8 14 13 29 13 44 0 89-72 162-161 162z m0 0m-110 35c5 6 8 13 8 21 0 8-3 15-8 21-6 5-13 8-21 8-8 0-15-3-21-8-5-6-8-13-8-21 0-8 3-15 8-21 6-5 13-8 21-8 8 0 15 3 21 8z m0 0m85 45c6 6 9 13 9 21s-3 15-9 21c-5 5-13 8-20 8-8 0-16-3-21-8-6-6-9-13-9-21s3-15 9-21c5-5 13-8 21-8 7 0 15 3 20 8z m0 0m91 0c5 6 8 13 8 21s-3 15-8 21c-6 5-13 8-21 8-8 0-15-3-21-8-5-6-8-13-8-21s3-15 8-21c6-5 13-8 21-8 8 0 15 3 21 8z m0 0m85-45c6 6 9 13 9 21 0 8-3 15-9 21-5 5-13 8-20 8s-16-3-21-8c-6-6-9-13-9-21 0-8 3-15 9-21 5-5 13-8 21-8s15 3 20 8z m0 0m26 493l-110 111c0 0 0 0-1 0 0 0 0 0 0 0l-110 110c-12 12-30 12-42 0-11-11-11-30 0-41l90-90-69-70-35 35c-20 20-47 32-76 32-29 0-56-12-76-32l-56-55-331-332c-20-20-31-47-31-76 0-29 11-56 31-76l35-35-201-201c-12-11-12-30 0-41 5-6 13-9 20-9 8 0 15 3 21 9l201 201 35-35c20-20 47-32 76-32 29 0 56 12 76 32l24 24-87 87c-12 11-12 30 0 41 11 12 30 12 41 0l87-87 53 52-132 132c-12 11-12 30 0 41 11 12 30 12 41 0l132-131 52 52-87 87c-12 11-12 30 0 41 11 12 30 12 41 0l87-87 80 79s0 0 0 0l55 56c42 42 42 110 0 152l-35 35 70 69 90-90c6-6 13-8 21-8 7 0 15 2 20 8 12 12 12 30 0 42z m-207-167l-35-35-181 181 35 35c9 9 22 14 35 14 13 0 25-5 35-14l111-111c19-19 19-51 0-70z m0 0" horiz-adv-x="998" />

<glyph glyph-name="veterinarian" unicode="&#xe80a;" d="M136 343c5 0 341 0 346 0 20 0 35 16 35 35 0 162 20 266-87 342-5 62-57 111-121 111-63 0-115-49-121-111-107-77-87-182-87-342 0-19 16-35 35-35z m173 418c29 0 52-23 52-51 0-29-23-52-52-52-29 0-51 23-51 52 0 28 23 51 51 51z m-102-117c47-74 157-74 205 0 80-89 17-231-103-231-119 0-183 142-102 231z m256-365c-93 53-211 55-307 0-7-4-8-13-3-19l148-147c5-5 12-5 16 0l148 147c6 6 4 15-2 19z m-350-44c-4 4-11 4-16 0-60-57-97-136-97-225v-106c0-20 16-35 35-35h239c7 0 12 5 12 11v177c0 3-1 6-3 8l-170 170z m642-106c-71 0-130-58-130-130 0-72 59-130 130-130s130 58 130 130c0 72-58 130-130 130z m0 17c46 0 83 37 83 83s-37 82-83 82-82-37-82-82 37-83 82-83z m-162-67c46 0 82 37 82 82 0 46-36 83-82 83-45 0-82-37-82-83 0-45 37-82 82-82z m325 165c-46 0-83-37-83-83 0-45 37-82 83-82 45 0 82 37 82 82 0 46-37 83-82 83z m-338-222c1 6-3 11-9 13-62 10-109 65-107 130 1 11-12 16-19 9l-109-109c-2-2-4-5-4-8v-177c0-6 6-11 12-11h240c11 0 21 6 28 14 3 4 2 10 0 14-27 37-37 81-32 125z" horiz-adv-x="1000" />

<glyph glyph-name="veterinarian-hospital" unicode="&#xe80b;" d="M356 473c25 5 46 17 63 37s27 45 30 72c3 21 5 44 5 70s0 55-2 89-9 61-21 83-27 29-46 25c-76-13-126-59-150-140-23-74-17-137 17-189 25-40 60-55 104-47z m288 0c58-10 99 18 121 83 24 68 19 135-17 200-29 52-73 83-131 93-20 4-36-4-47-25-11-22-18-49-20-83s-3-64-3-89 1-49 4-70c3-27 13-51 30-72s38-32 63-37z m-377-175c0 29-10 54-28 76-17 21-42 43-74 67s-54 32-64 24c-21-19-33-49-35-91-2-43 4-81 18-115 7-20 19-36 35-49s34-19 52-19c27 0 50 11 68 32s28 46 28 75z m632 167c-10 8-31 1-64-24-32-24-57-46-74-67s-25-47-25-76 9-54 27-75c19-21 41-32 66-32 20 0 38 6 53 19 16 13 27 29 34 49 14 34 20 72 18 115s-14 72-35 91z m-100-379c-14 19-39 34-76 46-18 9-34 23-47 39-13 16-21 30-24 41-4 12-8 30-14 56-6 27-9 43-11 50-7 29-22 52-46 70-24 19-51 28-81 28s-56-9-78-27-39-40-47-66c-3-12-7-29-11-51s-8-41-11-54-12-29-24-45-28-29-50-39c-35-13-60-29-75-49s-22-50-22-89c0-33 12-64 37-93 25-29 54-45 88-50 72-9 136 2 193 34 57-32 121-43 193-34 36 5 66 21 90 50 25 29 38 60 38 93 0 41-8 71-22 90z m-172-50h-82v-87h-90v87h-87v87h87v87h90v-87h82v-87z" horiz-adv-x="1000" />

<glyph glyph-name="washing-the-dog" unicode="&#xe80c;" d="M238 447c0-24-20-44-45-44-24 0-44 20-44 44 0 25 20 45 45 45 24 0 44-20 44-45z m617-40h-234c-56 0-102-45-102-102v-338l171 1 98 263c3 9 12 13 20 10 9-3 13-13 10-21l-102-274c-2-6-8-11-15-11l-287 0c-22 0-39-17-39-38 0-10 4-20 11-27 8-7 17-12 28-12h527c9 0 16 7 16 16v431c0 57-46 102-102 102z m-117 44c110 0 200 89 200 199 0 110-90 200-200 200-110 0-200-90-200-200 0-110 90-199 200-199z m-503-563c0-20-17-36-37-36-20 0-36 17-36 37 0 20 16 36 37 36 20 0 36-17 36-37z m213 468c-7 2-14 0-18-6l-39-53-17 43c-3 6-9 10-15 10 0 0 0 0 0 0-7 0-12-3-15-9l-27-58c-3 1-7 1-11 1-28 0-53-16-66-40l-107-4c-4 0-8-2-11-5-3-4-4-8-4-13 9-75 61-132 131-146l-42-123c32-4 56-32 56-65 0-14-5-27-13-38h111c-11 13-18 29-18 47 0 34 25 63 57 69-8 10-12 23-12 36 1 33 28 60 61 60 0 0 0 0 0 0 3 0 7 0 10-1v280c0 7-5 13-11 15z m-366-506l57 0c-5 10-16 17-29 17-12 0-23-7-28-17z" horiz-adv-x="1000" />

<glyph glyph-name="animals" unicode="&#xe80d;" d="M722 850l-41-41 34-34-9-64-33-34 154-154 34 34 63 9 35-34 41 41z m0 0m-192-192l20-21-78-78 83-83-41-41-83 83-41-41 45-46-41-41-45 45-41-41 82-82-41-41-82 82-41-41 45-45-41-41-46 45-69-70 232-232 65 65c-16 34-25 72-25 112 0 143 116 260 259 260 40 0 79-10 113-26l24 24 24-24 40 40-277 278z m0 0m-415-617l-114-191 188 118h77l-151 151z m0 0m330 105c0-32 8-62 21-89 26-49 70-87 123-103 18-6 37-9 57-9 111 0 201 90 201 201 0 111-90 201-201 201-111 0-201-90-201-201z m93 45c-1 16 14 29 29 29 16 0 29-13 29-29 1-15-14-29-29-29-16 0-28 14-29 29z m186-109c0-15-9-29-23-35-14-7-30-5-42 5-3 2-7 4-13 4-6 0-10-2-12-4-8-6-17-9-26-9-5 0-11 1-16 4-14 6-23 20-24 35 0 1 0 2 0 3 0 21 8 41 23 55 15 15 35 23 56 23 21 0 41-9 55-24 15-15 23-35 22-56z m1 138c16 0 28-13 29-29 1-15-14-29-29-29-16 0-28 14-29 29-1 16 14 29 29 29z m-50 0c1-15-14-29-29-29-16 0-28 14-29 29-1 16 14 29 29 29 16 0 28-13 29-29z m0 0" horiz-adv-x="1000" />

<glyph glyph-name="calendar" unicode="&#xe80e;" d="M364 298c0 13-10 23-22 23h-80c-12 0-22-10-22-23v-79c0-12 10-23 22-23h80c12 0 22 11 22 23v79l0 0z m198 0c0 13-10 23-22 23h-80c-12 0-22-10-22-23v-79c0-12 10-23 22-23h80c12 0 22 11 22 23v79z m198 0c0 13-10 23-22 23h-80c-12 0-22-10-22-23v-79c0-12 10-23 22-23h80c12 0 22 11 22 23v79z m-396-198c0 13-10 23-22 23h-80c-12 0-22-10-22-23v-79c0-12 10-23 22-23h80c12 0 22 11 22 23v79l0 0z m198 0c0 13-10 23-22 23h-80c-12 0-22-10-22-23v-79c0-12 10-23 22-23h80c12 0 22 11 22 23v79z m198 0c0 13-10 23-22 23h-80c-12 0-22-10-22-23v-79c0-12 10-23 22-23h80c12 0 22 11 22 23v79l0 0z m142 639v-121c0-55-44-99-99-99h-63c-54 0-99 44-99 99v121h-282v-121c0-55-45-99-99-99h-63c-54 0-99 44-99 99v121c-48-2-87-41-87-90v-709c0-49 40-90 90-90h798c50 0 90 41 90 90v709c0 49-39 88-87 90z m-29-755c0-21-17-38-39-38h-670c-21 0-39 17-39 38v367c0 21 18 38 39 38h670c22 0 39-17 39-38l0-367 0 0z m-676 600h62c19 0 34 15 34 34v198c0 19-15 34-34 34h-62c-19 0-34-15-34-34v-198c0-19 15-34 34-34z m543 0h61c19 0 34 15 34 34v198c0 19-15 34-34 34h-61c-19 0-34-15-34-34v-198c0-19 15-34 34-34z" horiz-adv-x="1000" />

<glyph glyph-name="calendar-with-a-clock-time-tools" unicode="&#xe80f;" d="M125 694v125c0 17 14 31 31 31 18 0 32-14 32-31v-125c0-17-14-31-32-31-17 0-31 14-31 31z m531-31c18 0 32 14 32 31v125c0 17-14 31-32 31-17 0-31-14-31-31v-125c0-17 14-31 31-31z m344-563c0-138-112-250-250-250-138 0-250 112-250 250 0 138 112 250 250 250 138 0 250-112 250-250z m-62 0c0 103-85 188-188 188-103 0-187-85-187-188 0-103 84-188 187-188 103 0 188 85 188 188z m-688 375h-125v-125h125v125z m-125-312h125v125h-125v-125z m188 187h125v125h-125v-125z m0-187h125v125h-125v-125z m-250-57v432h687v-125h63v243c0 38-31 69-68 69h-26v-31c0-35-28-63-63-63-34 0-62 28-62 63v31h-375v-31c0-35-28-63-63-63-34 0-62 28-62 63v31h-26c-38 0-68-31-68-69v-550c0-38 30-68 68-68h370v62h-370c-3 0-5 3-5 6z m562 244v125h-125v-125h125z m219-250h-94v94c0 17-14 31-31 31s-31-14-31-31v-125c0-17 14-31 31-31h125c17 0 31 14 31 31 0 17-14 31-31 31z" horiz-adv-x="1000" />

<glyph glyph-name="classroom" unicode="&#xe810;" d="M913 817h-480c-12 0-22-9-22-21v-169l24 15c6 4 13 6 19 7v125h437v-313h-437v51l-43-27v-45c0-12 10-22 22-22h480c12 0 21 10 21 22v356c0 12-9 21-21 21z m-315-120c-6 7-16 8-24 3l-74-59c7-5 13-11 18-19 1-2 2-4 3-6l74 58c7 5 8 16 3 23z m-106-91c-9 15-27 19-41 10l-61-38c0 51 0 24 0 57-1 39-33 70-72 70h-29c-26-65-17-41-39-97l9 40c1 3 0 6-1 8l-12 23 11 19c1 3-1 7-4 7h-30c-4 0-6-4-4-7l11-19-12-23c-2-2-2-5-2-8l8-40c-4 11-33 87-37 97h-31c-39 0-71-31-71-70l-1-222c0-16 13-30 30-30 0 0 0 0 0 0 17 0 30 14 30 30l1 221c0 0 0 0 0 0 0 4 3 6 6 6 4 0 6-2 6-6l0-313c28 1 53-9 73-26v122h15v-140c11-16 18-36 18-57 0-19-6-37-15-52 10 0 19-1 28-4 11 11 26 18 41 22 0 546 0 208 0 448 0 4 3 7 6 7 4 0 6-3 6-7 1-21 1-87 1-110 0-11 6-21 15-26 10-5 22-5 31 1l107 66c14 9 18 27 9 41z m507-549c0 42-34 75-75 75-18 0-150 0-166 0 7-13 11-29 11-46 0-17-5-35-14-52 36-1 69-21 88-51h79v74c0 3 3 6 6 6s7-2 7-6c0 0 0 0 0 0l1-74h63l0 74z m-432 29c0 17 5 33 12 47-43 0-94 0-147 0 7-13 10-29 10-45 0-19-5-37-14-52 30 0 58-13 79-34 19 19 46 31 75 32-10 16-15 35-15 52z m-50 200c-36 0-66-29-66-66 0-36 30-66 66-66 36 0 66 29 66 66 0 37-29 66-66 66z m-276-198c0 16 4 32 10 45-3 0 9 0-174 0-42 0-76-33-76-75l0-75c29 0 35 0 63 0l1 75c0 4 3 6 7 6 3 0 6-3 6-6v-75h89c20 31 53 51 89 52-10 16-15 34-15 53z m-79 198c-37 0-66-29-66-66 0-36 29-66 66-66 36 0 66 30 66 66 0 37-30 66-66 66z m663-361c0 41-34 75-75 75-4 0-162 0-167 0-41 0-77-34-78-75l0 1c0 41-34 75-76 75-47 0-116 0-167 0-41 0-77-33-77-75l0-76h63l1 76c0 3 2 6 5 6 4 0 6-3 6-6v-76c37 0 134 0 169 0v76c0 3 3 6 6 6 3 0 6-3 6-6l0-76c14 0 114 0 128 0l0 74c0 0 0 0 0 0 0 3 3 6 6 6 3 0 6-3 6-6v-74c37 0 133 0 168 0v74c0 4 3 6 6 6 4 0 7-2 7-6l0-74h64l-1 75z" horiz-adv-x="1000" />

<glyph glyph-name="dog-and-veterinarian" unicode="&#xe811;" d="M531 232c1 0 0 0 0 0l0 0z m-4 0c0 0-1 0 0 0l0 0z m472-207c-1 4-5 7-9 8l-77 32c-4 24-23 44-47 50l-5 49c0 6-4 11-10 13-6 2-12 0-16-4l-22-25-13 46c-2 7-8 11-14 11-7 1-13-3-15-10l-25-67c-7 8-13 15-21 22-51 51-121 80-194 82h-4c-39-1-76-10-110-25v108h116c20 0 37 7 50 19 1 1 172 172 172 172 28 28 28 74 0 102-14 13-32 21-51 21-20 0-38-8-51-21l-149-149h-407c-53 0-97-44-97-97v-411c0-9 7-16 15-16h145c-1-4-2-8-2-12 0-24 20-43 43-43h235c8 0 15 6 15 15 0 8-7 15-15 15h-235c-7 0-12 6-12 13 0 7 5 12 12 12 0 0 676 0 677 0 51 0 96 29 120 77 2 4 3 9 1 13z m-500 28c-8 0-15 7-15 15 0 23-18 42-41 42l-287 0c-8 0-15 6-15 15v184c0 8 7 15 15 15s16-7 16-15v-169l271 0c39 0 72-32 72-72 0-8-7-15-16-15z m-344 661c6 36 37 63 74 63 37 0 68-27 74-63h27c-25 62-87 106-158 106s-133-44-159-106h142z m30-11c0-25 19-44 44-44s44 19 44 44-20 44-44 44-44-20-44-44z m116-19c-9-32-38-56-72-56s-64 24-72 56h-153c-3-12-4-23-4-35 0-95 77-172 172-172 94 0 171 77 171 172 0 12-1 23-3 35h-39z" horiz-adv-x="1000" />

<glyph glyph-name="instagram-2" unicode="&#xf05d;" d="M0 57v287h215q24-83 94-136t160-54 159 54 94 136h215v-287q0-73-51-124t-125-52h-585q-73 0-124 52t-52 124z m0 433v153q0 72 52 124t124 51h585q73 0 125-51t51-124v-153h-215q-24 84-94 137t-159 54-160-54-94-137h-215z m323-72q0-61 42-104t104-43q61 0 103 43t43 104-43 103-103 43q-61 0-104-43t-42-103z" horiz-adv-x="937.5" />

<glyph glyph-name="instagram-1" unicode="&#xf16d;" d="M571 350q0 59-41 101t-101 42-101-42-42-101 42-101 101-42 101 42 41 101z m77 0q0-91-64-156t-155-64-156 64-64 156 64 156 156 64 155-64 64-156z m61 229q0-21-15-36t-37-15-36 15-15 36 15 36 36 15 37-15 15-36z m-280 123q-4 0-43 0t-59 0-54-2-57-5-40-11q-28-11-49-32t-33-49q-6-16-10-40t-6-58-1-53 0-59 0-43 0-43 0-59 1-53 6-58 10-40q12-28 33-49t49-32q16-6 40-11t57-5 54-2 59 0 43 0 42 0 59 0 54 2 58 5 39 11q28 11 50 32t32 49q6 16 10 40t6 58 1 53 0 59 0 43 0 43 0 59-1 53-6 58-10 40q-11 28-32 49t-50 32q-16 6-39 11t-58 5-54 2-59 0-42 0z m428-352q0-128-3-177-5-116-69-180t-179-69q-50-3-177-3t-177 3q-116 6-180 69t-69 180q-3 49-3 177t3 177q5 116 69 180t180 69q49 3 177 3t177-3q116-6 179-69t69-180q3-49 3-177z" horiz-adv-x="857.1" />

<glyph glyph-name="instagram-4" unicode="&#xf31e;" d="M749 849h-498c-138 0-249-111-249-248v-502c0-137 111-248 249-248h498c138 0 250 111 250 248v502c0 137-112 248-250 248z m157-750c0-86-70-156-157-156h-498c-87 0-157 70-157 156v324h197c-14-30-23-64-23-100 0-130 107-236 237-236 131 0 237 106 237 236 0 36-8 70-23 100h187v-324z m-499 224c0 54 44 98 98 98 54 0 98-44 98-98 0-54-44-98-98-98-54 0-98 44-98 98z m499 192h-264c-39 28-86 44-137 44-51 0-98-16-137-44h-274v86c0 86 70 156 157 156h498c87 0 157-70 157-156v-86h0z m-100 186h-85c-15 0-28-12-28-27v-86c0-15 13-27 28-27h85c16 0 28 12 28 27v86c0 15-12 27-28 27z" horiz-adv-x="1000" />

<glyph glyph-name="instagram-filled" unicode="&#xf31f;" d="M604 339c0 54-45 98-99 98-54 0-98-44-98-98 0-54 44-98 98-98 54 0 99 44 99 98z m146 510h-500c-137 0-249-111-249-248v-69h367c39 27 86 43 137 43 51 0 99-16 137-43h358v69c0 137-112 248-250 248z m101-236c0-15-12-28-28-28h-85c-16 0-28 13-28 28v85c0 16 12 28 28 28h85c16 0 28-12 28-28v-85z m-109-274c0-130-106-236-237-236-131 0-237 106-237 236 0 36 8 70 23 101h-290v-341c0-137 112-248 249-248h500c138 0 250 111 250 248v341h-280c14-31 22-65 22-101z" horiz-adv-x="1000" />

<glyph glyph-name="instagram" unicode="&#xf32d;" d="M690 350q0 26-6 50l176 0 0-344q0-56-39-96t-95-40l-592 0q-56 0-95 40t-39 96l0 344 174 0q-4-32-4-50 0-106 76-183t184-77q106 0 183 77t77 183z m36 430q56 0 95-39t39-95l0-146-218 0q-78 110-212 110-138 0-212-110l-218 0 0 146q0 56 39 95t95 39l592 0z m64-166l0 72q0 24-24 24l-72 0q-24 0-24-24l0-72q0-8 7-16t17-8l72 0q24 0 24 24z m-200-264q0-66-47-113t-113-47-113 47-47 113q0 68 47 114t113 46 113-46 47-114z" horiz-adv-x="860" />
</font>
</defs>
</svg>
